Give.Me.Liberty.2019.HDRip.XviD.AC3.LLG

seeders: 4
leechers: 1
updated:
Added by LifeLongg in Other


ᕦ( ▨̅ ͜▨̅ )ᕥ SPECIAL DEAL - OFFER ᕦ( ▨̅ ͜▨̅ )ᕥ
strongly advises you to use Nord while downloading torrents.
Nord is the safest on the market, and the fastest as well.
No IP Log is saved using Nord, avoid other providers and choose the safest one.
Click here and buy Nord it's on rebates today!
We were able to verify your IP: 3.227.240.143, country: United States.
If we can do that, others can too, protect your privacy with Nord.
is trying the best for you!
ᕦ( ▨̅ ͜▨̅ )ᕥ SPECIAL DEAL - OFFER ᕦ( ▨̅ ͜▨̅ )ᕥ


Give.Me.Liberty.2019.HDRip.XviD.AC3.LLG Size: 1.2 GB (1288490188 Bytes)

Description

Quote: 
 
 

******************************Thumbnail:**********************

 


******************************Screenshots:******************** 

Screenshot 1 

Screenshot 2 

Screenshot 3 

Screenshot 4 

Screenshot 5 

Screenshot 6 

Screenshot 7 

Screenshot 8 

Screenshot 9 

Screenshot 0 

********************************************************** 

Give.Me.Liberty.2019.HDRip.XviD.AC3.LLG.mp4
Format : MPEG-4
Format profile : Base Media
Codec ID : isom (isom/iso2/avc1/mp41)
File size : 1.24 GiB
Duration : 1 h 51 min
Overall bit rate mode : Variable
Overall bit rate : 1 597 kb/s
Writing application : Lavf57.83.100

Video
ID : 1
Format : AVC
Format/Info : Advanced Video Codec
Format profile : [email protected] 
Format settings : CABAC / 1 Ref Frames
Format settings, CABAC : Yes
Format settings, Reference frames : 1 frame
Codec ID : avc1
Codec ID/Info : Advanced Video Coding
Duration : 1 h 51 min
Bit rate mode : Variable
Bit rate : 1 209 kb/s
Maximum bit rate : 3 600 kb/s
Width : 720 pixels
Height : 388 pixels
Display aspect ratio : 1.85:1
Frame rate mode : Constant
Frame rate : 23.976 (23976/1000) FPS
Color space : YUV
Chroma subsampling : 4:2:0
Bit depth : 8 bits
Scan type : Progressive
Bits/(Pixel*Frame) : 0.181
Stream size : 961 MiB (76%)
Codec configuration box : avcC

Audio
ID : 2
Format : AC-3
Format/Info : Audio Coding 3
Commercial name : Dolby Digital
Codec ID : ac-3
Duration : 1 h 51 min
Bit rate mode : Constant
Bit rate : 384 kb/s
Channel(s) : 6 channels
Channel layout : L R C LFE Ls Rs
Sampling rate : 48.0 kHz
Frame rate : 31.250 FPS (1536 SPF)
Compression mode : Lossy
Stream size : 305 MiB (24%)
Language : English
Service kind : Complete Main
Default : Yes
Alternate group : 1



********************************************************** 

  
 

Sharing Widget


Download torrent
Size: 1.2 GB
seeders:4
leechers:1
Give.Me.Liberty.2019.HDRip.XviD.AC3.LLG - (1288490188 Bytes)



To share this torrent use the code below and insert it into comments, status messages, forum posts or your signature.

Torrent: Give.Me.Liberty.2019.HDRip.XviD.AC3.LLG

Trackers

tracker name
udp://tracker.openbittorrent.com:80/announce
udp://tracker.opentrackr.org:1337/announce
UDP://TRACKER.LEECHERS-PARADISE.ORG:6969/ANNOUNCE
udp://tracker.zer0day.to:1337/announce
udp://tracker.leechers-paradise.org:6969/announce
udp://coppersurfer.tk:6969/announce
µTorrent compatible trackers list

Locations

name
KickassTorrents
Torrent hash: 4312B748A430C9EE3E0B9D5C97CEDE47581A5E09

ᕦ( ▨̅ ͜▨̅ )ᕥ SPECIAL DEAL - OFFER ᕦ( ▨̅ ͜▨̅ )ᕥ
strongly advises you to use Nord while downloading torrents.
Nord is the safest on the market, and the fastest as well.
No IP Log is saved using Nord, avoid other providers and choose the safest one.
Click here and buy Nord it's on rebates today!
We were able to verify your IP: 3.227.240.143, country: United States.
If we can do that, others can too, protect your privacy with Nord.
is trying the best for you!
ᕦ( ▨̅ ͜▨̅ )ᕥ SPECIAL DEAL - OFFER ᕦ( ▨̅ ͜▨̅ )ᕥ

All Comments

*comments box temporarily disabled*
Report a bug